Используя ffmpeg для преобразования файла в другой

для некоторого фона я делаю веб-страницу, которая регулирует положение воспроизведения во встроенном видео, когда пользователь прокручивает, поэтому, если вы прокрутите вниз, видео будет продвигаться и наоборот. Это прекрасно работает с одним видеофайлом, но невыносимо отстает от другого. Следует отметить, что я не забочусь о аудио, было бы лучше, если бы файлы не было ни одного, на самом деле.

Я не так много знаю о форматах видео, но я многому научился за последние несколько часов!

так, это рабочий видеофайл:

ffmpeg version 3.4.2 Copyright (c) 2000-2018 the FFmpeg developers
  built with Apple LLVM version 9.0.0 (clang-900.0.39.2)
  configuration: --prefix=/usr/local/Cellar/ffmpeg/3.4.2 --enable-shared --enable-pthreads --enable-version3 --enable-hardcoded-tables --enable-avresample --cc=clang --host-cflags= --host-ldflags= --disable-jack --enable-gpl --enable-libmp3lame --enable-libx264 --enable-libxvid --enable-opencl --enable-videotoolbox --disable-lzma
  libavutil      55. 78.100 / 55. 78.100
  libavcodec     57.107.100 / 57.107.100
  libavformat    57. 83.100 / 57. 83.100
  libavdevice    57. 10.100 / 57. 10.100
  libavfilter     6.107.100 /  6.107.100
  libavresample   3.  7.  0 /  3.  7.  0
  libswscale      4.  8.100 /  4.  8.100
  libswresample   2.  9.100 /  2.  9.100
  libpostproc    54.  7.100 / 54.  7.100
Input #0, mov,mp4,m4a,3gp,3g2,mj2, from 'video1.mp4':
  Metadata:
    major_brand     : isom
    minor_version   : 512
    compatible_brands: isomiso2avc1mp41
    encoder         : Lavf58.11.101
  Duration: 00:00:20.38, start: 0.000000, bitrate: 5367 kb/s
    Stream #0:0(eng): Video: h264 (Constrained Baseline) (avc1 / 0x31637661), yuv420p, 1920x1080 [SAR 1:1 DAR 16:9], 5199 kb/s, 24 fps, 24 tbr, 12288 tbn, 48 tbc (default)
    Metadata:
      handler_name    : VideoHandler
      timecode        : 00:00:00:00
    Stream #0:1(eng): Data: none (rtp  / 0x20707472), 164 kb/s
    Metadata:
      handler_name    : HintHandler
    Stream #0:2(eng): Data: none (tmcd / 0x64636D74), 0 kb/s
    Metadata:
      handler_name    : TimeCodeHandler
      timecode        : 00:00:00:00

а вот тот, который отстает:

Input #0, mov,mp4,m4a,3gp,3g2,mj2, from 'video2.mp4':
  Metadata:
    major_brand     : mp42
    minor_version   : 0
    compatible_brands: isomiso2avc1mp41mp42
    encoder         : Lavf57.25.100
  Duration: 00:00:19.20, start: 0.000000, bitrate: 7435 kb/s
    Stream #0:0(und): Video: h264 (Constrained Baseline) (avc1 / 0x31637661), yuv420p, 1920x1080 [SAR 1:1 DAR 16:9], 7206 kb/s, 25 fps, 25 tbr, 12800 tbn, 50 tbc (default)
    Metadata:
      handler_name    : VideoHandler
    Stream #0:1(und): Data: none (rtp  / 0x20707472), 225 kb/s (default)
    Metadata:
      creation_time   : 2018-07-22T22:58:04.000000Z
      handler_name    : GPAC ISO Hint Handler

как вы можете видеть во втором, я попытался добавить поток подсказок (через encoding.com) для улучшения отзывчивости воспроизведения, как я читал это помогает, но безрезультатно.

мне интересно, могут ли какие-то люди помочь мне разобраться в разнице между двумя файлами, чтобы я мог хорошо работать с обоими. Спасибо!

редактировать

вот выходные данные ffmpeg -i <file>.mp4 -f null - как просили в комментариях:

а вот и логи из ffmpeg -discard nokey -copyts -i <file>.mp4 -vf showinfo -f null -:

5
задан developius
источник

1 ответов

video2.mp4 есть редкие кадры, тогда как видео1 имеет каждый 3-й кадр, так преобразовать его так,

ffmpeg -i video2.mp4 -g 3 -profile:v baseline -movflags +faststart+rtphint out.mp4
1
отвечен Gyan 2018-07-30 05:18:53
источник

Другие вопросы ffmpeg h.264 mp4 video