Мистери.avi-нет звука на оригинале, но звук на копии

У меня старый .avi файл, где звук просто колючий, никакой тайны нет, но у меня есть wmv-файл, предположительно полученный из .avi файл, но wmv имеет звук. Кто-нибудь знает, что могло случиться и как это исправить?

быстрая справочная информация:

в 2006 году мы записали день рождения с моей подруги компьютер, он работает XP и запись была сделана с Logitech Quickcam для ноутбуков, вероятно, с помощью quickcapture (quickcam 8.4.8). Тогда моя девушка отредактированные части клипов в Windows Movie Maker, преобразование его в .wmv и отправил его нашим друзьям. Однако в оригинальных клипах мой друг держал веселый монолог и впоследствии упал со стула. Я действительно хочу этот клип для того, что мы делаем для его мальчишника.

теперь, как оригинальный avi клип может иметь странный царапающий звук, просто статичный на самом деле, и отредактированная версия, клип wmv, имеет идеальный звук?
Я прогнал их через mediainfo и получил данные ниже.

Я пробовал без успеха:

  • перекодировка avi в другой формат.
  • использование audacity, чтобы проверить звуковой профиль, и avi имеет звуковой профиль, который выглядит как сплошной полосой статического с несколькими шипами. Я пробовал каждый фильтр на audacity с out result
  • запуск старого компьютера и проверка, есть ли звук – это не так, но оригинал был скопирован в разные папки, так как это создание. Я попытался воспроизвести ситуацию с камерой, сначала записав, а затем запустив moviemaker, но эти клипы сохраняют звук.

Если файл просто поврежден, это должно было произойти, когда моя подруга переместила его в другую папку на том же компьютере, и это должно было произойти со всеми avi-файлами из Logitech cam (все они имеют ту же проблему). Это вероятно?

могло ли программное обеспечение Logitech использовать какой-то странный кодек или mux, который впоследствии исчезли в более поздних обновлениях, так что текущее программное обеспечение использует неправильный demux или кодек, чтобы открыть avi?

могла ли программа записать неверную информацию о демуксе / кодеке в avi? Есть ли игрок, где я могу заставить использовать определенный кодек для тестирования этого.
Это может быть какая-то маленькая-endian – тупоконечники вопрос?

пожалуйста, кто-нибудь помогите мне с этим!

Complete name                           Video 3.avi  (without sound) last change:   2006-08-20 16:46

Format                                   : AVI 
Format/Info                              : Audio Video Interleave 
File size                                : 145 MiB 
Duration                                 : 7 min 55 s 
Overall bit rate                         : 2 556 kb/s 
IsTruncated                              : Yes 

Video
ID                                       : 0 
Format                                   : Indeo 4 
Codec ID                                 : IV50 
Codec ID/Info                            : Intel Indeo Video 5.0 Wavelet 
Duration                                 : 7 min 55 s 
Bit rate                                 : 2 378 kb/s 
Width                                    : 640 pixels 
Height                                   : 480 pixels 
Display aspect ratio                     : 4:3 
Frame rate                               : 15.000 FPS 
Bits/(Pixel*Frame)                       : 0.516 
Stream size                              : 135 MiB (93%) 
Title                                    : qc2.avi Video #1 

Audio
ID                                       : 1 
Format                                   : PCM 
Format settings, Endianness              : Little 
Format settings, Sign                    : Unsigned 
Codec ID                                 : 1 
Duration                                 : 7 min 55 s 
Bit rate mode                            : Constant 
Bit rate                                 : 176.4 kb/s 
Channel(s)                               : 1 channel 
Sampling rate                            : 22.05 kHz 
Bit depth                                : 8 bits 
Stream size                              : 10.0 MiB (7%) 
Alignment                                : Aligned on interleaves 
Interleave, duration                     : 2954  ms (44.32 video frames) 
Title                                    : qc2.avi Audio #1 

 
Complete name                         Party 2006.wmv  (With sound) last change:2006-08-20 17:43
Format                                   : Windows Media
File size                                : 26.4 MiB
Duration                                 : 4 min 13 s
Overall bit rate mode                    : Constant
Overall bit rate                         : 873 kb/s
Maximum Overall bit rate                 : 874 kb/s
Encoded date                             : UTC 2006-08-20 16:40:48.328
Application                              : Windows Movie Maker 2.1.4026.0

Video
ID                                       : 2 
Format                                   : VC-1 
Format profile                           : MP@ML 
Codec ID                                 : WMV3 
Codec ID/Info                            : Windows Media Video 9 
Codec ID/Hint                            : WMV3 
Description of the codec                 : Windows Media Video 9 
Duration                                 : 4 min 13 s  
Bit rate mode                            : Constant 
Bit rate                                 : 768 kb/s 
Width                                    : 640 pixels 
Height                                   : 480 pixels 
Display aspect ratio                     : 4:3 
Frame rate                               : 25.000 FPS 
Color space                              : YUV 
Chroma subsampling                       : 4:2:0 
Bit depth                                : 8 bits 
Scan type                                : Progressive 
Compression mode                         : Lossy 
Bits/(Pixel*Frame)                       : 0.100
Stream size                              : 23.2 MiB (88%) 
Language                                 : Swedish 

Audio
ID                                       : 1 
Format                                   : WMA 
Format version                           : Version 2 
Codec ID                                 : 161 
Codec ID/Info                            : Windows Media Audio 
Description of the codec                 : Windows Media Audio 9.1 -  96 kbps, 44 kHz, stereo (A/V) 1-pass  CBR
Duration                                 : 4 min 13 s 
Bit rate mode                            : Constant 
Bit rate                                 : 96.0 kb/s 
Channel(s)                               : 2 channels 
Sampling rate                          : 44.1 kHz 

я извлек аудио из исходного файла avi с помощью ffmpeg в wav файл один и тот же бит и samplingrate. Результат audacity приведен ниже. Однако Audacity, похоже, не хочет открывать файл в 8 бит. Я попробовал wavosaur с тем же результатом.
Изображение формы волны в audacity-серая коробка раздел, который я попытался declipping с audacity.
Слева-близкий зум кривой

прикрепленный клип аудио с неизменным форматом находится здесь
скачать клип

Введите описание изображения вот

5
источник

2 ответов

к сожалению, я считаю, что Диркт прав. Там просто нет звука на Ави. Я взял помощь от друга, чтобы проверить, что я извлек аудио правильно с помощью ffmpeg, option-acodec копировать. Глядя на дамп для всей звуковой клип, я получаю довольно много, что видно в ответ Dirkt по. Глядя на дамп для всей Ави, я получаю тот же результат (по крайней мере, если я правильно догадался, что звуковые). В основном тишина, но с большим количеством статики.

исключив проблемы с кодеком с помощью ffplay-i c:\ffmpeg\video3.avi-acodec [xxxx] чтобы заставить плеер использовать определенный кодек, я могу только сделать вывод, что avi, который у меня есть, не является оригиналом, и по какой-то причине звука просто нет. Возможно, какая-то проблема с конверсией.

Спасибо, что нашли время, чтобы помочь мне с этим, а для подшипника с новичком. По крайней мере, я узнал много нового о AV-файлах и декодировании.

1
отвечен Carl-Fredrik von Essen 2017-07-05 09:37:06
источник

частичный ответ:" царапающий " звук имеет частоту дискретизации 22.05 кГц, что составляет половину обычного 44.1 кГц. Это означает, что если что-нибудь в игровой цепи пытается upsample его, есть опасность псевдоним. Другие возможные источники "царапающего" звука обтравочный или необычный muxing.

таким образом, первый шаг, чтобы извлечь звук и преобразовать его, например, в файл WAV, сохраняя формат. Вы можете сделать это, например, с ffmpeg, вариант -acodec copy. Что должен избавиться от каких-либо нечетных мультиплексирования, так что если он играет после этого, это было проблемой.

следующий шаг, чтобы взглянуть на форму волны в аудио-редакторе, как audacity, и выяснить точную проблему. Это означает, что вам нужно предоставить нам некоторые данные или включить изображение соответствующей части с формой волны, достаточно растянутой, чтобы быть видимой, если вы не можете определить проблему самостоятельно. Последний шаг-исправить то, что не так, например, попробуйте некоторые upsamplers, чтобы получить его до 44,1 кГц, или найти declipper, который работает на нем, или что необходимо.

редактировать

клип с неизмененным форматом содержит только тишину. Часть шестнадцатеричного дампа, остальные похожи:

00000060  80 80 80 80 80 80 80 80  80 80 7f 80 7f 80 7f 80   
00000070  80 80 80 7f 80 7f 80 7f  80 7f 80 80 80 80 80 80

80 и 7f являются" средними " значениями, очень близкими к нулю в подписанном формате.

так что если вы действительно можете здесь что-то на оригинальном AVI, то есть кто-то говорит, просто искаженный и "колючий", то что угодно ты сделал, чтобы прибыть в этот клип стерли эту информацию. Или ты выбрал часть, которая была тишиной.

0
отвечен dirkt 2017-06-29 13:01:37
источник

Другие вопросы audio avi codec video-conversion